<?xml version="1.0" standalone="no"?>
<!DOCTYPE svg PUBLIC "-//W3C//DTD SVG 1.1//EN" "http://www.w3.org/Graphics/SVG/1.1/DTD/svg11.dtd" >
<svg xmlns="http://www.w3.org/2000/svg">
<metadata>
This is a custom SVG webfont generated by Font Squirrel.
Copyright   : C 2008 2009 2010 2011 Andrey V Panov
Designer    : Andrey V Panov
Foundry     : Andrey V Panov
Foundry URL : httpcodegooglecompistok
</metadata>
<defs>
<font id="IstokWebRegular" horiz-adv-x="1110" >
<font-face units-per-em="2048" ascent="1638" descent="-410" />
<missing-glyph horiz-adv-x="682" />
<glyph unicode=" "  horiz-adv-x="682" />
<glyph unicode="&#x09;" horiz-adv-x="682" />
<glyph unicode="&#xa0;" horiz-adv-x="682" />
<glyph unicode="!" horiz-adv-x="600" d="M198 1379q0 55 50 55h104q50 0 50 -55l-21 -944q0 -45 -45 -45h-72q-45 0 -45 45zM199 45v122q0 45 45 45h112q45 0 45 -45v-122q0 -45 -45 -45h-112q-45 0 -45 45z" />
<glyph unicode="&#x22;" horiz-adv-x="828" d="M151 1414v5q0 50 36 50h104q36 0 36 -50v-5l-21 -545q-2 -45 -35 -45h-64q-33 0 -35 45zM501 1414v5q0 50 36 50h104q36 0 36 -50v-5l-21 -545q-2 -45 -35 -45h-64q-33 0 -35 45z" />
<glyph unicode="#" horiz-adv-x="1390" d="M82 410l9 50q6 35 51 35h215l76 432h-215q-44 0 -38 35l8 50q6 35 52 35h215l58 330q8 45 43 45h62q35 0 27 -45l-58 -330h336l58 330q8 45 43 45h62q35 0 27 -45l-58 -330h215q39 0 39 -27q0 -4 -1 -8l-8 -50q-6 -35 -52 -35h-215l-76 -432h215q45 0 39 -35l-9 -50 q-6 -35 -51 -35h-215l-58 -330q-8 -45 -43 -45h-62q-35 0 -27 45l58 330h-336l-58 -330q-8 -45 -43 -45h-62q-35 0 -27 45l58 330h-215q-40 0 -40 27q0 4 1 8zM489 495h336l76 432h-336z" />
<glyph unicode="$" d="M99 180l40 54q14 20 34 20q23 0 53 -26q74 -63 141 -82.5t139 -24.5v530q-73 21 -143 61q-95 54 -147 123t-66 128t-14 153q0 64 46 147t129 130t195 58v120q0 45 35 45h50q35 0 35 -45v-122q65 0 149.5 -30.5t126.5 -71.5q31 -30 31 -55q0 -12 -7 -23l-43 -63 q-14 -21 -33 -21q-25 0 -57 35q-34 37 -88.5 56.5t-78.5 19.5v-488q79 -25 176 -82q68 -40 116 -95t68 -121t20 -136q0 -94 -32 -168t-117 -145t-231 -88v-138q0 -45 -35 -45h-50q-35 0 -35 45v136q-100 0 -206.5 32.5t-172.5 92.5q-36 33 -36 60q0 13 8 24zM322 1104 q0 -79 26.5 -130t95.5 -90q30 -17 62 -31v446q-64 -5 -124 -52t-60 -143zM626 127q76 17 130 70t54 176q0 67 -30.5 120.5t-77.5 81.5q-52 30 -76 38v-486z" />
<glyph unicode="%" horiz-adv-x="1782" d="M108 1122q0 160 84.5 272.5t224.5 112.5t224.5 -112.5t84.5 -272.5t-84.5 -272.5t-224.5 -112.5t-224.5 112.5t-84.5 272.5zM268 1122q0 -140 34.5 -205t114.5 -65t114.5 65t34.5 205t-34.5 205t-114.5 65t-114.5 -65t-34.5 -205zM371 6l938 1501q16 26 35 26q9 0 19 -6 l42 -27q17 -10 17 -26q0 -13 -11 -30l-938 -1501q-16 -26 -35 -26q-9 0 -19 6l-42 27q-17 10 -17 26q0 13 11 30zM1056 328q0 160 84.5 272.5t224.5 112.5t224.5 -112.5t84.5 -272.5t-84.5 -272.5t-224.5 -112.5t-224.5 112.5t-84.5 272.5zM1216 328q0 -140 34.5 -205 t114.5 -65t114.5 65t34.5 205t-34.5 205t-114.5 65t-114.5 -65t-34.5 -205z" />
<glyph unicode="&#x26;" horiz-adv-x="1382" d="M120 326q0 103 50.5 215.5t275.5 275.5q-50 57 -104.5 140.5t-54.5 206.5q0 120 83 210t267 90q113 0 218.5 -60.5t105.5 -224.5q0 -106 -72.5 -200t-194.5 -186l314 -375q40 42 84 117t56 123q10 36 36 36q7 0 15 -2l76 -24q32 -11 32 -36q0 -8 -3 -18q-30 -90 -90 -181 t-105 -136l201 -239q21 -25 21 -39q0 -19 -39 -19h-101q-58 0 -94 43l-110 130q-93 -91 -196 -147t-272 -56q-172 0 -285.5 99t-113.5 257zM315 328q0 -92 56.5 -152.5t168.5 -60.5q84 0 182 53t164 125l-338 405q-153 -117 -193 -191.5t-40 -178.5zM467 1173 q0 -82 44.5 -149.5t80.5 -112.5q110 94 149.5 151t39.5 123q0 56 -38.5 98t-118.5 42q-74 0 -115.5 -43t-41.5 -109z" />
<glyph unicode="'" horiz-adv-x="478" d="M151 1414q-2 55 36 55h104q38 0 36 -55l-21 -545q-2 -45 -35 -45h-64q-33 0 -35 45z" />
<glyph unicode="(" horiz-adv-x="670" d="M124 544q0 308 104 540t263 409q38 43 68 20l35 -27q31 -24 -2 -59q-90 -96 -181 -323.5t-91 -559.5t91 -559.5t181 -323.5q33 -35 2 -59l-35 -27q-30 -23 -68 20q-159 177 -263 409t-104 540z" />
<glyph unicode=")" horiz-adv-x="670" d="M76 -398q-31 24 2 59q90 96 181 323.5t91 559.5t-91 559.5t-181 323.5q-33 35 -2 59l35 27q30 23 68 -20q159 -177 263 -409t104 -540t-104 -540t-263 -409q-38 -43 -68 -20z" />
<glyph unicode="*" horiz-adv-x="940" d="M115 859q-14 24 -14 43q0 40 55 63l214 92l-214 93q-55 23 -55 63q0 19 14 43l6 10q23 40 56 40q25 0 56 -23l187 -139l-27 232q-1 10 -1 18q0 70 72 70h12q72 0 72 -70q0 -8 -1 -18l-27 -232l187 139q31 23 56 23q33 0 56 -40l6 -10q14 -24 14 -43q0 -40 -55 -63 l-214 -93l214 -92q55 -23 55 -63q0 -19 -14 -43l-6 -10q-24 -40 -57 -40q-25 0 -55 22l-187 140l27 -232q1 -10 1 -18q0 -70 -72 -70h-12q-72 0 -72 70q0 8 1 18l27 232l-187 -140q-30 -22 -55 -22q-33 0 -57 40z" />
<glyph unicode="+" horiz-adv-x="1280" d="M80 700v50q0 35 45 35h454v454q0 45 35 45h50q35 0 35 -45v-454h456q45 0 45 -35v-50q0 -35 -45 -35h-456v-456q0 -45 -35 -45h-50q-35 0 -35 45v456h-454q-45 0 -45 35z" />
<glyph unicode="," horiz-adv-x="600" d="M197 45v122q0 45 45 45h116q45 0 45 -45v-122q0 -105 -22.5 -183.5t-88.5 -137.5q-13 -11 -23 -11q-8 0 -14 6l-45 42q-15 14 7 34q34 30 55.5 86.5t21.5 118.5h-52q-45 0 -45 45z" />
<glyph unicode="-" horiz-adv-x="680" d="M56 518v70q0 35 45 35h478q45 0 45 -35v-70q0 -35 -45 -35h-478q-45 0 -45 35z" />
<glyph unicode="." horiz-adv-x="600" d="M199 45v122q0 45 45 45h112q45 0 45 -45v-122q0 -45 -45 -45h-112q-45 0 -45 45z" />
<glyph unicode="/" horiz-adv-x="840" d="M7 -335l715 1771q13 32 35 31q7 0 16 -3l45 -18q21 -8 21 -29q0 -11 -6 -26l-715 -1771q-13 -32 -35 -32q-6 0 -14 3l-45 18q-23 9 -23 31q0 11 6 25z" />
<glyph unicode="0" d="M93 711q0 350 96 545.5t366 195.5t366 -195.5t96 -545.5t-96 -545.5t-366 -195.5t-366 195.5t-96 545.5zM279 711q0 -280 48 -438.5t228 -158.5t228 158.5t48 438.5t-48 438.5t-228 158.5t-228 -158.5t-48 -438.5z" />
<glyph unicode="1" horiz-adv-x="827" d="M161 1151q-13 32 24 46q77 29 146 93t109 114q29 36 56 36h85q46 0 46 -45v-1350q0 -45 -45 -45h-86q-45 0 -45 45v1096q0 30 2 60h-2q-31 -39 -91 -80t-110 -60q-44 -17 -58 16z" />
<glyph unicode="2" d="M94 45v48q0 39 33 72l392 395q174 175 228.5 270.5t54.5 220.5q0 105 -61.5 178t-186.5 73q-112 0 -186 -57t-107 -191q-11 -46 -43 -46q-8 0 -16 2l-78 23q-20 6 -20 41q0 18 5 44q29 131 140.5 232.5t296.5 101.5q235 0 343.5 -118t108.5 -289q0 -167 -89.5 -288 t-245.5 -272l-329 -319v-4q27 2 80 2h545q55 0 55 -45v-74q0 -45 -55 -45h-810q-55 0 -55 45z" />
<glyph unicode="3" d="M93 223l52 63q14 17 30 17q23 0 51 -35q52 -65 128.5 -106.5t160.5 -41.5q165 0 234 82t69 219q0 145 -92 210t-206 65h-88q-45 0 -45 33v74q0 35 45 35h71q110 0 188.5 72t78.5 196q0 86 -63 141t-177 55q-107 0 -175 -49t-96 -85q-22 -28 -43 -28q-15 0 -29 13l-59 57 q-9 9 -9 21q0 24 32 62q52 61 149.5 110t232.5 49q207 0 316 -100t109 -259q0 -126 -77.5 -210.5t-169.5 -104.5v-4q107 -15 205 -116t98 -241q0 -208 -120.5 -327.5t-382.5 -119.5q-152 0 -251 59.5t-151 118.5q-25 29 -25 51q0 13 9 24z" />
<glyph unicode="4" d="M64 399v88q0 32 24 69l549 848q23 36 56 36h91q46 0 46 -45v-877h171q45 0 45 -45v-74q0 -45 -44 -45h-172v-309q0 -45 -45 -45h-86q-45 0 -45 45v309h-545q-45 0 -45 45zM243 518h411v575q0 30 2 60h-2z" />
<glyph unicode="5" d="M105 239l62 55q12 11 25 11q25 0 54 -36q27 -33 95 -91t177 -58q143 0 215.5 88t72.5 233q0 137 -62 216t-186 79q-77 0 -128 -15t-106 -63q-38 -33 -80 -33h-47q-45 0 -45 45v707q0 45 45 45h690q45 0 45 -45v-74q0 -45 -45 -45h-559v-395q0 -30 -2 -60h4q56 47 131 65 t139 18q186 0 294 -124t108 -325q0 -219 -129.5 -343t-352.5 -124q-163 0 -262.5 67.5t-143.5 125.5q-22 28 -22 49q0 16 13 27z" />
<glyph unicode="6" d="M92 671q0 440 153 610.5t372 170.5q125 0 200 -32t129 -82q27 -25 27 -45q0 -11 -8 -20l-47 -55q-13 -15 -29 -15q-20 0 -44 21q-37 32 -89 55t-148 23q-135 0 -235 -135t-100 -424h2q45 65 129.5 110.5t213.5 45.5q160 0 281 -109.5t121 -329.5q0 -218 -115.5 -354 t-341.5 -136q-236 0 -353.5 187.5t-117.5 513.5zM307 447q0 -124 68.5 -225.5t189.5 -101.5q125 0 192 94t67 240q0 145 -68 218.5t-170 73.5q-132 0 -205.5 -81t-73.5 -218z" />
<glyph unicode="7" horiz-adv-x="1100" d="M88 1303v74q0 45 45 45h834q45 0 45 -45v-69q0 -32 -36 -72q-200 -227 -321 -502.5t-121 -600.5v-94q0 -45 -45 -45h-91q-45 0 -45 45v59q0 361 137 635.5t341 524.5v2q-30 -2 -60 -2h-638q-45 0 -45 45z" />
<glyph unicode="8" d="M92 410q0 140 87 238.5t172 119.5v3q-92 29 -158 108t-66 209q0 165 119 264.5t309 99.5t309 -99.5t119 -264.5q0 -130 -70 -209.5t-162 -108.5v-2q85 -21 176 -119.5t91 -238.5q0 -200 -111.5 -320t-351.5 -120t-351.5 120t-111.5 320zM287 406q0 -140 69 -213t199 -73 t198.5 73t68.5 213q0 110 -71 194t-196 84t-196.5 -84t-71.5 -194zM315 1088q0 -100 57.5 -171t182.5 -71t182.5 71t57.5 171q0 80 -55 147t-185 67t-185 -67t-55 -147z" />
<glyph unicode="9" d="M90 962q0 218 115.5 354t341.5 136q236 0 353.5 -187.5t117.5 -513.5q0 -440 -153 -610.5t-372 -170.5q-125 0 -200 32t-129 82q-27 25 -27 45q0 11 8 20l47 55q13 15 29 15q20 0 44 -21q37 -32 89 -55t148 -23q135 0 235 135t100 424h-2q-45 -65 -129.5 -110.5 t-213.5 -45.5q-160 0 -281 109.5t-121 329.5zM286 968q0 -145 68 -218.5t170 -73.5q132 0 205.5 81t73.5 218q0 124 -68.5 225.5t-189.5 101.5q-125 0 -192 -94t-67 -240z" />
<glyph unicode=":" horiz-adv-x="600" d="M199 45v122q0 45 45 45h112q45 0 45 -45v-122q0 -45 -45 -45h-112q-45 0 -45 45zM199 883v122q0 45 45 45h112q45 0 45 -45v-122q0 -45 -45 -45h-112q-45 0 -45 45z" />
<glyph unicode=";" horiz-adv-x="600" d="M197 45v122q0 45 45 45h116q45 0 45 -45v-122q0 -105 -22.5 -183.5t-88.5 -137.5q-13 -11 -23 -11q-8 0 -14 6l-45 42q-15 14 7 34q34 30 55.5 86.5t21.5 118.5h-52q-45 0 -45 45zM199 883v122q0 45 45 45h112q45 0 45 -45v-122q0 -45 -45 -45h-112q-45 0 -45 45z" />
<glyph unicode="&#x3c;" horiz-adv-x="1280" d="M105 719v32q0 20 25 34l952 550q17 10 29 10q18 0 28 -18l25 -43q6 -9 6 -18q0 -19 -28 -35l-859 -495v-2l859 -495q28 -16 28 -35q0 -9 -6 -18l-25 -43q-10 -18 -28 -18q-12 0 -29 10l-952 550q-25 14 -25 34z" />
<glyph unicode="=" horiz-adv-x="1280" d="M80 530v50q0 35 45 35h1030q45 0 45 -35v-50q0 -35 -45 -35h-1030q-45 0 -45 35zM80 870v50q0 35 45 35h1030q45 0 45 -35v-50q0 -35 -45 -35h-1030q-45 0 -45 35z" />
<glyph unicode="&#x3e;" horiz-adv-x="1280" d="M116 186q-18 30 22 53l859 495v2l-859 495q-40 23 -22 53l25 43q18 31 57 8l952 -550q25 -14 25 -34v-32q0 -20 -25 -34l-952 -550q-39 -23 -57 8z" />
<glyph unicode="?" horiz-adv-x="1016" d="M108 1250q27 67 118.5 140.5t266.5 73.5q215 0 316 -102.5t101 -273.5q0 -143 -166.5 -327.5t-166.5 -322.5v-23q0 -45 -45 -45h-86q-45 0 -45 45v37q0 169 156.5 347.5t156.5 294.5q0 122 -57 171t-157 49q-110 0 -165.5 -40t-84.5 -109q-17 -40 -44 -40q-10 0 -21 5 l-74 34q-16 7 -16 31q0 21 13 55zM387 45v122q0 45 45 45h112q45 0 45 -45v-122q0 -45 -45 -45h-112q-45 0 -45 45z" />
<glyph unicode="@" horiz-adv-x="1992" d="M120 551q0 381 260 651.5t680 270.5q306 0 559 -178.5t253 -578.5q0 -294 -141 -449.5t-371 -155.5q-130 0 -166 57t-36 164h-2q-38 -89 -130 -155t-183 -66q-134 0 -215.5 96t-81.5 260q0 206 131.5 390.5t328.5 184.5q191 0 235 -176h4l23 106q7 34 42 34h110 q35 0 27 -35l-131 -591q-10 -45 -10 -75q0 -35 14 -49q26 -25 71 -25q146 0 252.5 111.5t106.5 373.5q0 304 -194 470.5t-494 166.5q-342 0 -581 -218.5t-239 -598.5q0 -332 228.5 -540t549.5 -208q150 0 302.5 54.5t283.5 160.5q27 22 43 0l39 -54q17 -24 -10 -42 q-163 -115 -322.5 -177t-344.5 -62q-359 0 -625 238t-266 645zM717 447q0 -123 44.5 -169.5t123.5 -46.5q101 0 188.5 142.5t103.5 208.5q15 64 15 145q0 69 -41 133t-121 64q-134 0 -223.5 -144t-89.5 -333z" />
<glyph unicode="A" horiz-adv-x="1360" d="M46 66l498 1307q23 61 66 61h140q43 0 66 -61l498 -1307q8 -21 8 -36q0 -30 -35 -30h-102q-53 0 -72 49l-125 331h-616l-125 -331q-19 -49 -72 -49h-102q-35 0 -35 30q0 15 8 36zM435 544h490l-153 400q-21 56 -41.5 124t-48.5 193h-4q-28 -125 -48.5 -193t-41.5 -124z " />
<glyph unicode="B" horiz-adv-x="1358" d="M170 55v1324q0 55 50 55h390q340 0 458 -110t118 -265q0 -123 -98 -208.5t-190 -100.5v-3q101 -9 225.5 -100.5t124.5 -248.5q0 -170 -125.5 -284t-462.5 -114h-440q-50 0 -50 55zM362 164h266q215 0 315 53t100 187q0 124 -101.5 192t-313.5 68h-266v-500zM362 808h251 q167 0 272.5 71.5t105.5 179.5q0 103 -79 157t-299 54h-251v-462z" />
<glyph unicode="C" horiz-adv-x="1402" d="M92 717q0 350 173.5 548.5t498.5 198.5q190 0 314 -64.5t178 -176.5q28 -58 -9 -80l-79 -46q-40 -23 -71 38q-33 63 -108 118t-215 55q-250 0 -363.5 -155.5t-113.5 -435.5t113.5 -435.5t363.5 -155.5q144 0 230.5 66t125.5 138q31 58 72 35l83 -47q36 -21 6 -80 q-59 -115 -192 -191.5t-335 -76.5q-325 0 -498.5 198.5t-173.5 548.5z" />
<glyph unicode="D" horiz-adv-x="1436" d="M170 55v1324q0 55 50 55h369q424 0 589.5 -187.5t165.5 -527.5t-165.5 -529.5t-589.5 -189.5h-369q-50 0 -50 55zM362 164h218q330 0 444.5 140t114.5 415t-114.5 414t-444.5 139h-218v-1108z" />
<glyph unicode="E" horiz-adv-x="1270" d="M170 55v1324q0 55 50 55h875q55 0 55 -45v-74q0 -45 -55 -45h-733v-444h673q55 0 55 -45v-74q0 -45 -55 -45h-673v-498h763q55 0 55 -45v-74q0 -45 -55 -45h-905q-50 0 -50 55z" />
<glyph unicode="F" horiz-adv-x="1166" d="M170 55v1324q0 55 50 55h815q55 0 55 -45v-74q0 -45 -55 -45h-673v-474h587q55 0 55 -45v-74q0 -45 -55 -45h-587v-577q0 -55 -50 -55h-92q-50 0 -50 55z" />
<glyph unicode="G" horiz-adv-x="1470" d="M92 717q0 350 181 548.5t503 198.5q193 0 315 -66.5t179 -156.5q35 -56 -1 -81l-75 -52q-37 -26 -74 31q-30 45 -113 107t-221 62q-245 0 -367 -155.5t-122 -435.5t119 -435.5t380 -155.5q130 0 226.5 31.5t135.5 87.5v265h-297q-55 0 -55 45v74q0 45 55 45h434 q55 0 55 -45v-472q-122 -89 -244 -138t-320 -49q-330 0 -512 198.5t-182 548.5z" />
<glyph unicode="H" horiz-adv-x="1422" d="M170 55v1324q0 55 50 55h92q50 0 50 -55v-551h698v551q0 55 50 55h92q50 0 50 -55v-1324q0 -55 -50 -55h-92q-50 0 -50 55v609h-698v-609q0 -55 -50 -55h-92q-50 0 -50 55z" />
<glyph unicode="I" horiz-adv-x="532" d="M170 55v1324q0 55 50 55h92q50 0 50 -55v-1324q0 -55 -50 -55h-92q-50 0 -50 55z" />
<glyph unicode="J" horiz-adv-x="824" d="M39 94l33 71q13 28 36 28q16 0 37 -14q81 -53 162 -53q97 0 126 65.5t29 186.5v1001q0 55 50 55h92q50 0 50 -55v-978q0 -198 -62 -314.5t-290 -116.5q-125 0 -235 59q-33 18 -33 44q0 10 5 21z" />
<glyph unicode="K" horiz-adv-x="1328" d="M170 55v1324q0 55 50 55h92q50 0 50 -55v-588q0 -40 -2 -80h4l668 684q38 39 70 39h121q47 0 47 -21q0 -16 -29 -45l-508 -518l535 -784q18 -27 18 -43q0 -23 -36 -23h-122q-44 0 -70 39l-457 675l-239 -243v-416q0 -55 -50 -55h-92q-50 0 -50 55z" />
<glyph unicode="L" horiz-adv-x="1136" d="M170 55v1324q0 55 50 55h92q50 0 50 -55v-1215h663q55 0 55 -45v-74q0 -45 -55 -45h-805q-50 0 -50 55z" />
<glyph unicode="M" horiz-adv-x="1708" d="M170 55v1324q0 55 50 55h213q38 0 57 -60l286 -897q44 -138 52 -166.5t23 -104.5h6q15 76 23 104.5t52 166.5l286 897q19 60 57 60h213q50 0 50 -55v-1324q0 -55 -50 -55h-92q-50 0 -50 55v1049q0 40 2 80h-4l-369 -1123q-20 -61 -66 -61h-110q-46 0 -66 61l-369 1123h-4 q2 -40 2 -80v-1049q0 -55 -50 -55h-92q-50 0 -50 55z" />
<glyph unicode="N" horiz-adv-x="1438" d="M170 55v1324q0 55 50 55h128q70 0 100 -50l626 -1049h4q-2 40 -2 80v964q0 55 50 55h92q50 0 50 -55v-1324q0 -55 -50 -55h-88q-70 0 -100 50l-666 1113h-4q2 -40 2 -80v-1028q0 -55 -50 -55h-92q-50 0 -50 55z" />
<glyph unicode="O" horiz-adv-x="1524" d="M92 717q0 350 172.5 548.5t497.5 198.5t497.5 -198.5t172.5 -548.5t-172.5 -548.5t-497.5 -198.5t-497.5 198.5t-172.5 548.5zM297 717q0 -280 115 -435.5t350 -155.5t350 155.5t115 435.5t-115 435.5t-350 155.5t-350 -155.5t-115 -435.5z" />
<glyph unicode="P" horiz-adv-x="1308" d="M170 55v1324q0 55 50 55h420q340 0 459 -114.5t119 -314.5t-119 -314.5t-459 -114.5h-278v-521q0 -55 -50 -55h-92q-50 0 -50 55zM362 740h281q220 0 300 62.5t80 202.5t-80 202.5t-300 62.5h-281v-530z" />
<glyph unicode="Q" horiz-adv-x="1524" d="M92 719q0 350 172.5 547.5t497.5 197.5t497.5 -198.5t172.5 -548.5t-172 -549q-144 -165 -393 -192q10 -97 72 -155t177 -58q62 0 101 10t44 -11l20 -88q5 -24 -25 -31q-89 -20 -172 -20q-215 0 -307.5 107.5t-101.5 243.5q-262 24 -411 196q-172 199 -172 549zM297 717 q0 -280 115 -435.5t350 -155.5t350 155.5t115 435.5t-115 435.5t-350 155.5t-350 -155.5t-115 -435.5z" />
<glyph unicode="R" horiz-adv-x="1394" d="M170 55v1324q0 55 50 55h483q289 0 418.5 -108t129.5 -285q0 -156 -104.5 -262t-297.5 -122v-2q102 -76 135 -115.5t74 -106.5l226 -367q17 -27 17 -43q0 -23 -35 -23h-114q-47 0 -70 39l-208 357q-45 77 -129 151t-209 74h-174v-566q0 -55 -50 -55h-92q-50 0 -50 55z M362 785h289q195 0 300 51.5t105 216.5q0 126 -96 171.5t-261 45.5h-337v-485z" />
<glyph unicode="S" horiz-adv-x="1224" d="M113 192l52 75q13 18 32 18q23 0 55 -24q79 -59 164.5 -97t207.5 -38q90 0 152 27t99.5 77.5t37.5 122.5q0 52 -15.5 96.5t-49.5 74.5t-71 47q-61 28 -182.5 65t-212.5 80q-90 43 -143.5 104t-71 125.5t-17.5 147.5q0 127 74 219t181.5 122t218.5 30q127 0 221 -33 t168 -86q34 -24 34 -50q0 -14 -10 -28l-51 -73q-9 -14 -26 -14q-24 0 -64 28q-51 36 -124.5 67.5t-145.5 31.5q-92 0 -153 -21.5t-96 -72.5t-35 -118q0 -42 8 -77.5t41 -72.5t80 -57q63 -27 195.5 -63.5t231.5 -89.5q92 -49 132.5 -102.5t63 -116t22.5 -140.5 q0 -142 -73 -237t-173 -132t-251 -37q-181 0 -300 42t-178 96q-36 33 -36 60q0 12 8 24z" />
<glyph unicode="T" horiz-adv-x="1240" d="M36 1307v82q0 45 55 45h1058q55 0 55 -45v-82q0 -45 -55 -45h-433v-1207q0 -55 -50 -55h-92q-50 0 -50 55v1207h-433q-55 0 -55 45z" />
<glyph unicode="U" horiz-adv-x="1402" d="M170 547v832q0 55 50 55h92q50 0 50 -55v-802q0 -280 79.5 -365.5t259.5 -85.5t259.5 85.5t79.5 365.5v802q0 55 50 55h92q50 0 50 -55v-832q0 -317 -145.5 -447t-385.5 -130t-385.5 130t-145.5 447z" />
<glyph unicode="V" horiz-adv-x="1338" d="M46 1368q-25 66 27 66h102q54 0 72 -49l325 -895q21 -59 52.5 -158.5t42.5 -158.5h4q11 59 42.5 158.5t52.5 158.5l325 895q18 49 72 49h102q52 0 27 -66l-487 -1307q-23 -61 -66 -61h-140q-43 0 -66 61z" />
<glyph unicode="W" horiz-adv-x="1888" d="M48 1374q-16 60 26 60h122q32 0 43 -46l223 -961l31 -126q18 -68 31 -128h5q9 59 23 117l31 136l228 954q13 54 64 54h138q51 0 64 -54l228 -954l31 -136q14 -58 23 -117h5q13 60 31 128l31 126l223 961q11 46 43 46h122q42 0 26 -60l-344 -1297q-20 -77 -74 -77h-125 q-50 0 -71 84l-241 959q-18 73 -26 119.5t-14 96.5h-2q-6 -50 -14 -96.5t-26 -119.5l-241 -959q-21 -84 -71 -84h-125q-54 0 -74 77z" />
<glyph unicode="X" horiz-adv-x="1310" d="M59 66l480 674l-446 628q-20 28 -20 44q0 22 38 22h123q44 0 70 -39l351 -522l351 522q26 39 70 39h123q38 0 38 -22q0 -16 -20 -44l-446 -628l480 -674q20 -28 20 -44q0 -22 -38 -22h-124q-44 0 -70 39l-384 568l-384 -568q-26 -39 -70 -39h-124q-38 0 -38 22 q0 16 20 44z" />
<glyph unicode="Y" horiz-adv-x="1302" d="M54 1368q-43 66 27 66h112q44 0 72 -49l254 -437l72 -126q30 -53 58 -113h4q28 60 58 113l72 126l254 437q28 49 72 49h112q70 0 27 -66l-501 -778v-535q0 -55 -50 -55h-92q-50 0 -50 55v535z" />
<glyph unicode="Z" horiz-adv-x="1216" d="M65 45v48q0 48 30 89l786 1086v4q-40 -2 -80 -2h-649q-55 0 -55 45v74q0 45 55 45h922q55 0 55 -45v-31q0 -33 -20 -61l-796 -1131v-4q27 2 80 2h703q55 0 55 -45v-74q0 -45 -55 -45h-976q-55 0 -55 45z" />
<glyph unicode="[" horiz-adv-x="658" d="M170 -363v1814q0 45 45 45h328q45 0 45 -35v-60q0 -35 -45 -35h-197v-1644h197q45 0 45 -35v-60q0 -35 -45 -35h-328q-45 0 -45 45z" />
<glyph unicode="\" horiz-adv-x="840" d="M7 1391q-17 42 15 55l45 18q34 14 51 -28l715 -1771q17 -42 -17 -56l-45 -18q-32 -13 -49 29z" />
<glyph unicode="]" horiz-adv-x="658" d="M70 -313q0 35 45 35h197v1644h-197q-45 0 -45 35v60q0 35 45 35h328q45 0 45 -45v-1814q0 -45 -45 -45h-328q-45 0 -45 35v60z" />
<glyph unicode="^" horiz-adv-x="866" d="M84 979l263 421q21 34 65 34h42q44 0 65 -34l263 -421q10 -16 10 -29q0 -16 -16 -27l-49 -32q-9 -6 -19 -6q-18 0 -35 26l-239 379h-2l-239 -379q-17 -26 -35 -26q-10 0 -19 6l-49 32q-16 11 -16 27q0 13 10 29z" />
<glyph unicode="_" horiz-adv-x="1100" d="M-24 -295q0 35 45 35h1058q45 0 45 -35v-60q0 -35 -45 -35h-1058q-45 0 -45 35v60z" />
<glyph unicode="`" horiz-adv-x="614" d="M179 1383q-45 52 14 52h111q55 0 81 -37l139 -195q38 -53 -12 -53h-74q-56 0 -81 29z" />
<glyph unicode="a" horiz-adv-x="1067" d="M85 280q0 178 166.5 261t497.5 97v68q0 94 -42.5 162.5t-168.5 68.5q-97 0 -164.5 -28t-126.5 -94q-27 -30 -51 -3l-52 60q-8 9 -8 20q0 18 23 40q82 78 192 106.5t187 28.5q209 0 298 -107.5t89 -294.5v-620q0 -45 -45 -45h-90q-39 0 -39 45v49h-2q-79 -62 -154.5 -86.5 t-168.5 -24.5q-164 0 -252.5 78.5t-88.5 218.5zM267 286q0 -98 46.5 -133t147.5 -35q77 0 146 15t142 79v295q-341 -26 -411.5 -89.5t-70.5 -131.5z" />
<glyph unicode="b" horiz-adv-x="1119" d="M142 45v1386q0 45 45 45h86q45 0 45 -45v-445q0 -31 -2 -61h2q55 66 124 104t184 38q200 0 304 -163.5t104 -378.5t-104 -378.5t-304 -163.5q-115 0 -184 38t-124 104h-2l-6 -80q-3 -45 -39 -45h-84q-45 0 -45 45zM318 410q0 -150 71.5 -223.5t179.5 -73.5 q152 0 215.5 114t63.5 298t-63.5 298t-215.5 114q-108 0 -179.5 -73.5t-71.5 -223.5v-230z" />
<glyph unicode="c" horiz-adv-x="1026" d="M85 525q0 235 116.5 388.5t356.5 153.5q162 0 247.5 -57.5t123.5 -117.5q21 -33 -9 -53l-63 -41q-30 -21 -60 27q-29 46 -81.5 79t-157.5 33q-137 0 -212 -101t-75 -311t75 -311t212 -101q111 0 170 42.5t86 92.5q26 47 59 27l67 -40q30 -18 9 -54q-25 -43 -113.5 -120.5 t-277.5 -77.5q-240 0 -356.5 153.5t-116.5 388.5z" />
<glyph unicode="d" horiz-adv-x="1119" d="M85 525q0 215 104 378.5t304 163.5q115 0 184 -38t124 -104h2q-2 30 -2 61v445q0 45 45 45h86q45 0 45 -45v-1386q0 -45 -45 -45h-84q-36 0 -39 45l-6 80h-2q-55 -66 -124 -104t-184 -38q-200 0 -304 163.5t-104 378.5zM271 525q0 -184 63.5 -298t215.5 -114 q108 0 179.5 73.5t71.5 223.5v230q0 150 -71.5 223.5t-179.5 73.5q-152 0 -215.5 -114t-63.5 -298z" />
<glyph unicode="e" horiz-adv-x="1098" d="M85 525q0 248 124 395t355 147q192 0 318.5 -134.5t126.5 -429.5q0 -45 -41 -45h-697q17 -193 104 -268.5t197 -75.5q116 0 178 39t91 77q20 26 39 26q12 0 23 -10l59 -51q23 -20 0 -55q-19 -29 -108.5 -93t-281.5 -64q-250 0 -368.5 147t-118.5 395zM267 588h565 q-4 140 -72 245.5t-200 105.5q-116 0 -197 -77.5t-96 -273.5z" />
<glyph unicode="f" horiz-adv-x="652" d="M45 953v62q0 35 45 35h107v149q0 167 90 230.5t206 63.5q69 0 111.5 -7t100.5 -31q16 -6 16 -20q0 -5 -3 -12l-31 -79q-8 -20 -35 -8q-22 10 -54 18.5t-69 8.5q-83 0 -119.5 -40t-36.5 -153v-120h183q45 0 45 -35v-62q0 -35 -45 -35h-183v-873q0 -45 -45 -45h-86 q-45 0 -45 45v873h-107q-45 0 -45 35z" />
<glyph unicode="g" horiz-adv-x="1119" d="M85 525q0 215 104 378.5t304 163.5q115 0 184 -38t124 -104h2l6 80q3 45 39 45h84q45 0 45 -45v-1013q0 -192 -88.5 -300.5t-349.5 -108.5q-175 0 -262 39.5t-124 83.5q-27 33 -3 56l55 54q9 8 20 8q19 0 44 -22q53 -48 102 -68.5t169 -20.5q136 0 198.5 58t62.5 240v60 q0 31 2 61h-2q-52 -69 -122.5 -109t-185.5 -40q-200 0 -304 163.5t-104 378.5zM271 525q0 -184 63.5 -298t215.5 -114q108 0 179.5 73.5t71.5 223.5v230q0 150 -71.5 223.5t-179.5 73.5q-152 0 -215.5 -114t-63.5 -298z" />
<glyph unicode="h" horiz-adv-x="1128" d="M142 45v1386q0 45 45 45h86q45 0 45 -45v-446q0 -30 -2 -60h4q65 72 140 107t187 35q182 0 261.5 -102.5t79.5 -280.5v-639q0 -45 -45 -45h-86q-45 0 -45 45v591q0 196 -65 248.5t-165 52.5q-130 0 -197 -77.5t-67 -265.5v-549q0 -45 -45 -45h-86q-45 0 -45 45z" />
<glyph unicode="i" horiz-adv-x="460" d="M142 45v960q0 45 45 45h86q45 0 45 -45v-960q0 -45 -45 -45h-86q-45 0 -45 45zM142 1285v86q0 45 45 45h86q45 0 45 -45v-86q0 -45 -45 -45h-86q-45 0 -45 45z" />
<glyph unicode="j" horiz-adv-x="466" d="M-102 -365l17 81q5 24 25 15q39 -18 96 -18q59 0 85.5 58t26.5 235v999q0 45 45 45h86q45 0 45 -45v-1098q0 -194 -73.5 -259t-182.5 -65q-106 0 -152 20q-19 8 -19 26q0 3 1 6zM148 1285v86q0 45 45 45h86q45 0 45 -45v-86q0 -45 -45 -45h-86q-45 0 -45 45z" />
<glyph unicode="k" horiz-adv-x="1003" d="M142 45v1386q0 45 45 45h86q45 0 45 -45v-832q0 -30 -2 -60h2l405 485q22 26 53 26h91q46 0 46 -21q0 -14 -20 -38l-314 -374l359 -558q14 -22 14 -36q0 -23 -40 -23h-98q-33 0 -57 37l-288 449l-151 -180v-261q0 -45 -45 -45h-86q-45 0 -45 45z" />
<glyph unicode="l" horiz-adv-x="460" d="M142 45v1248q0 20 10 38l70 127q19 35 31 35h35q30 0 30 -35v-1413q0 -45 -45 -45h-86q-45 0 -45 45z" />
<glyph unicode="m" horiz-adv-x="1678" d="M142 45v960q0 45 45 45h84q45 0 45 -45v-80h4q65 72 141 107t146 35q129 0 198.5 -64.5t89.5 -129.5h4q55 82 139 138t179 56q159 0 240 -102.5t81 -280.5v-639q0 -45 -45 -45h-86q-45 0 -45 45v581q0 196 -49 253.5t-151 57.5q-100 0 -167 -85.5t-67 -257.5v-549 q0 -45 -45 -45h-86q-45 0 -45 45v581q0 196 -49 253.5t-151 57.5q-100 0 -167 -77.5t-67 -265.5v-549q0 -45 -45 -45h-86q-45 0 -45 45z" />
<glyph unicode="n" horiz-adv-x="1128" d="M142 45v960q0 45 45 45h84q45 0 45 -45v-80h4q65 72 140 107t187 35q182 0 261.5 -102.5t79.5 -280.5v-639q0 -45 -45 -45h-86q-45 0 -45 45v591q0 196 -65 248.5t-165 52.5q-130 0 -197 -77.5t-67 -265.5v-549q0 -45 -45 -45h-86q-45 0 -45 45z" />
<glyph unicode="o" horiz-adv-x="1148" d="M85 525q0 235 124.5 388.5t364.5 153.5t364.5 -153.5t124.5 -388.5t-124.5 -388.5t-364.5 -153.5t-364.5 153.5t-124.5 388.5zM271 525q0 -210 83 -311t220 -101t220 101t83 311t-83 311t-220 101t-220 -101t-83 -311z" />
<glyph unicode="p" horiz-adv-x="1119" d="M142 -355v1360q0 45 45 45h84q36 0 39 -45l6 -80h2q55 66 124 104t184 38q200 0 304 -163.5t104 -378.5t-104 -378.5t-304 -163.5q-115 0 -184 38t-124 104h-2q2 -30 2 -61v-419q0 -45 -45 -45h-86q-45 0 -45 45zM318 410q0 -150 71.5 -223.5t179.5 -73.5 q152 0 215.5 114t63.5 298t-63.5 298t-215.5 114q-108 0 -179.5 -73.5t-71.5 -223.5v-230z" />
<glyph unicode="q" horiz-adv-x="1119" d="M85 525q0 215 104 378.5t304 163.5q115 0 184 -38t124 -104h2l6 80q3 45 39 45h84q45 0 45 -45v-1360q0 -45 -45 -45h-86q-45 0 -45 45v419q0 31 2 61h-2q-55 -66 -124 -104t-184 -38q-200 0 -304 163.5t-104 378.5zM271 525q0 -184 63.5 -298t215.5 -114 q108 0 179.5 73.5t71.5 223.5v230q0 150 -71.5 223.5t-179.5 73.5q-152 0 -215.5 -114t-63.5 -298z" />
<glyph unicode="r" horiz-adv-x="722" d="M142 45v960q0 45 45 45h84q45 0 45 -45v-120h4q48 90 113 136t162 46q64 0 90 -11q18 -7 18 -22q0 -4 -1 -8l-23 -82q-5 -18 -26 -14q-35 7 -66 7q-117 0 -193 -105.5t-76 -287.5v-499q0 -45 -45 -45h-86q-45 0 -45 45z" />
<glyph unicode="s" horiz-adv-x="944" d="M70 152l45 63q10 14 26 14q17 0 39 -17q59 -45 131.5 -72t165.5 -27q55 0 98 13.5t75.5 50.5t32.5 99q0 36 -15.5 68t-48 51.5t-63.5 30.5q-51 19 -101.5 31.5t-132.5 38.5q-55 17 -104 48.5t-85.5 85.5t-36.5 149q0 97 59 167t148 95.5t173 25.5q124 0 199.5 -28.5 t130.5 -67.5q32 -23 9 -53l-45 -60q-10 -14 -26 -14q-17 0 -39 16q-37 26 -105 49t-119 23q-63 0 -108 -14t-73 -48t-28 -80q0 -35 11 -62.5t41 -50.5t84 -37l154 -40q69 -18 125 -44q73 -34 112.5 -75t54.5 -88.5t15 -105.5q0 -107 -63.5 -181t-141.5 -98.5t-188 -24.5 q-149 0 -255.5 42.5t-137.5 72.5q-20 18 -20 35q0 10 7 19z" />
<glyph unicode="t" horiz-adv-x="757" d="M46 953v62q0 35 45 35h118v90q0 20 10 38l70 127q19 35 31 35h35q30 0 30 -35v-255h213q45 0 45 -35v-62q0 -35 -45 -35h-213v-637q0 -105 31.5 -136.5t75.5 -31.5q34 0 81.5 20t65.5 34t28 -9l33 -77q2 -6 2 -11q0 -13 -14 -21q-39 -23 -114 -44.5t-150 -21.5 q-104 0 -159.5 75t-55.5 212v648h-118q-45 0 -45 35z" />
<glyph unicode="u" horiz-adv-x="1120" d="M140 366v639q0 45 45 45h86q45 0 45 -45v-591q0 -196 65 -248.5t161 -52.5q126 0 193 77.5t67 265.5v549q0 45 45 45h86q45 0 45 -45v-960q0 -45 -45 -45h-84q-45 0 -45 45v80h-4q-65 -72 -140 -107t-183 -35q-175 0 -256 102.5t-81 280.5z" />
<glyph unicode="v" horiz-adv-x="986" d="M45 1001q-17 49 27 49h109q32 0 45 -39l212 -660l36 -111q9 -30 17 -76h4q7 46 17 76l36 111l212 660q13 39 45 39h109q44 0 27 -49l-328 -940q-21 -61 -54 -61h-132q-33 0 -54 61z" />
<glyph unicode="w" horiz-adv-x="1444" d="M45 1001q-13 49 27 49h105q36 0 45 -39l147 -660l22 -91q15 -62 20 -91h4q5 28 17.5 84t23.5 98l176 660q10 39 45 39h90q35 0 45 -39l176 -660q11 -42 23.5 -98t17.5 -84h4l21 91l21 91l147 660q9 39 45 39h105q40 0 27 -49l-248 -940q-16 -61 -54 -61h-120 q-38 0 -54 61l-170 661q-18 70 -22.5 98t-7.5 53h-2q-3 -25 -7.5 -53t-22.5 -98l-170 -661q-16 -61 -54 -61h-120q-38 0 -54 61z" />
<glyph unicode="x" horiz-adv-x="974" d="M50 59l341 494l-303 438q-16 22 -16 36q0 23 42 23h98q36 0 53 -26l221 -348l220 348q16 26 53 26h99q42 0 42 -23q0 -14 -16 -36l-303 -438l341 -494q16 -22 16 -36q0 -23 -42 -23h-98q-36 0 -53 26l-259 405l-259 -405q-17 -26 -53 -26h-98q-42 0 -42 23q0 14 16 36z " />
<glyph unicode="y" horiz-adv-x="990" d="M51 1001q-18 49 27 49h109q33 0 45 -39l210 -660l28 -85q18 -57 26 -102h2q8 45 20 82l34 105l212 660q13 39 45 39h109q45 0 27 -49l-337 -940q-95 -265 -170 -371.5t-224 -106.5q-78 0 -124 23q-21 10 -14 31l26 81q7 21 27 12q41 -17 79 -17q70 0 114 75.5t70 151.5 l20 59z" />
<glyph unicode="z" horiz-adv-x="950" d="M55 35v51q0 34 35 80l578 752v2q-30 -2 -60 -2h-484q-45 0 -45 35v62q0 35 45 35h702q45 0 45 -35v-47q0 -30 -37 -78l-582 -758v-2q30 2 60 2h538q45 0 45 -35v-62q0 -35 -45 -35h-750q-45 0 -45 35z" />
<glyph unicode="{" horiz-adv-x="776" d="M90 524v40q0 45 35 45q72 0 148.5 74.5t76.5 247.5v235q0 169 63 249.5t248 80.5q45 0 45 -35v-60q0 -35 -45 -35q-98 0 -116.5 -41t-18.5 -136v-286q0 -205 -91.5 -277t-155.5 -81v-2q64 -9 155.5 -81t91.5 -277v-286q0 -95 18.5 -136t116.5 -41q45 0 45 -35v-60 q0 -35 -45 -35q-185 0 -248 80.5t-63 249.5v235q0 173 -76.5 247.5t-148.5 74.5q-35 0 -35 45z" />
<glyph unicode="|" horiz-adv-x="590" d="M230 -395v1846q0 45 35 45h60q35 0 35 -45v-1846q0 -45 -35 -45h-60q-35 0 -35 45z" />
<glyph unicode="}" horiz-adv-x="776" d="M70 -313q0 35 45 35q98 0 116.5 41t18.5 136v286q0 205 91.5 277t155.5 81v2q-64 9 -155.5 81t-91.5 277v286q0 95 -18.5 136t-116.5 41q-45 0 -45 35v60q0 35 45 35q185 0 248 -80.5t63 -249.5v-235q0 -173 76.5 -247.5t148.5 -74.5q35 0 35 -45v-40q0 -45 -35 -45 q-72 0 -148.5 -74.5t-76.5 -247.5v-235q0 -169 -63 -249.5t-248 -80.5q-45 0 -45 35v60z" />
<glyph unicode="~" horiz-adv-x="1280" d="M88 671q35 110 116 174.5t196 64.5t278.5 -120t238.5 -120q69 0 113 45t69 101q13 30 37 21l43 -15q16 -5 16 -24q0 -8 -3 -19q-35 -110 -116 -174.5t-196 -64.5t-278.5 120t-238.5 120q-69 0 -113 -45t-69 -101q-13 -30 -37 -21l-43 15q-16 5 -16 24q0 8 3 19z" />
<glyph unicode="&#xa2;" d="M128 525q0 235 108.5 377.5t299.5 161.5v188q0 45 35 45h50q35 0 35 -45v-187q122 -8 200 -60.5t116 -112.5q21 -33 -9 -53l-63 -41q-9 -6 -18 -6l-42 33q-29 46 -74 74.5t-110 34.5v-818q72 8 123 45t78 87q18 33 40 33q9 0 19 -6l67 -40q18 -11 18 -27q0 -12 -9 -27 q-25 -43 -107 -114.5t-229 -81.5v-187q0 -45 -35 -45h-50q-35 0 -35 45v188q-191 19 -299.5 161.5t-108.5 377.5zM314 525q0 -210 65.5 -298.5t156.5 -107.5v812q-91 -19 -156.5 -107.5t-65.5 -298.5z" />
<glyph unicode="&#xa3;" d="M79 45v57q0 36 35 73l99 104q68 72 68 196v153h-158q-44 0 -44 45v74q0 45 45 45h157v221q0 237 107 338t302 101q108 0 186 -33t125 -80q21 -21 21 -40q0 -11 -8 -21l-45 -52q-15 -17 -31 -17q-17 0 -36 19q-32 32 -87.5 53t-133.5 21q-96 0 -160 -52.5t-64 -214.5v-243 h285q45 0 45 -45v-74q0 -45 -44 -45h-286v-133q0 -141 -46.5 -221t-91.5 -108v-4q27 2 80 2h572q55 0 55 -45v-74q0 -45 -55 -45h-837q-55 0 -55 45z" />
<glyph unicode="&#xa5;" d="M15 1368q-38 66 27 66h92q47 0 72 -49l226 -437l66 -128q27 -51 55 -111h4q28 60 55 111l66 128l226 437q25 49 72 49h92q65 0 27 -66l-365 -629h176q45 0 45 -45v-59q0 -45 -45 -45h-263v-181h263q45 0 45 -45v-59q0 -45 -45 -45h-263v-215q0 -45 -45 -45h-86 q-45 0 -45 45v215h-273q-45 0 -45 45v59q0 45 45 45h273v181h-273q-45 0 -45 45v59q0 45 45 45h186z" />
<glyph unicode="&#xa9;" horiz-adv-x="1654" d="M80 717q0 152 59.5 290t159.5 238t238 159.5t290 59.5t290 -59.5t238 -159.5t159.5 -238t59.5 -290t-59.5 -290t-159.5 -238t-238 -159.5t-290 -59.5t-290 59.5t-238 159.5t-159.5 238t-59.5 290zM180 717q0 -132 51.5 -251.5t138 -206t206 -140t251.5 -53.5t251.5 53.5 t206 140t138 206t51.5 251.5t-51.5 251.5t-138 206t-206 140t-251.5 53.5t-251.5 -53.5t-206 -140t-138 -206t-51.5 -251.5zM430 717q0 203 103 318t292 115q110 0 184.5 -38t105.5 -103q16 -34 -5 -46l-58 -32q-23 -13 -41 22q-19 37 -59 64.5t-122 27.5q-145 0 -207.5 -83 t-62.5 -245t62.5 -245t207.5 -83q84 0 130.5 34.5t69.5 76.5q18 33 42 20l60 -33q11 -6 11 -20q0 -11 -8 -27q-34 -67 -113.5 -111.5t-196.5 -44.5q-188 0 -291.5 115t-103.5 318z" />
<glyph unicode="&#xad;" horiz-adv-x="680" d="M56 518v70q0 35 45 35h478q45 0 45 -35v-70q0 -35 -45 -35h-478q-45 0 -45 35z" />
<glyph unicode="&#xae;" horiz-adv-x="1654" d="M80 717q0 152 59.5 290t159.5 238t238 159.5t290 59.5t290 -59.5t238 -159.5t159.5 -238t59.5 -290t-59.5 -290t-159.5 -238t-238 -159.5t-290 -59.5t-290 59.5t-238 159.5t-159.5 238t-59.5 290zM180 717q0 -132 51.5 -251.5t138 -206t206 -140t251.5 -53.5t251.5 53.5 t206 140t138 206t51.5 251.5t-51.5 251.5t-138 206t-206 140t-251.5 53.5t-251.5 -53.5t-206 -140t-138 -206t-51.5 -251.5zM540 315v768q0 32 29 32h280q168 0 243 -63t75 -165q0 -90 -58.5 -152.5t-174.5 -76.5v-1q57 -35 77 -59t44 -64l131 -212q10 -16 10 -25 q0 -14 -21 -14h-76q-26 0 -40 23l-116 197q-23 39 -75.5 84.5t-125.5 45.5h-82v-318q0 -32 -29 -32h-62q-29 0 -29 32zM660 743h149q113 0 173 32.5t60 108.5q0 70 -55 95.5t-150 25.5h-177v-262z" />
<glyph unicode="&#xb4;" horiz-adv-x="614" d="M179 1203l139 195q26 37 81 37h111q33 0 33 -17q0 -12 -19 -35l-178 -204q-25 -29 -81 -29h-74q-28 0 -28 17q0 13 16 36z" />
<glyph unicode="&#x131;" horiz-adv-x="460" d="M142 45v960q0 45 45 45h86q45 0 45 -45v-960q0 -45 -45 -45h-86q-45 0 -45 45z" />
<glyph unicode="&#x237;" horiz-adv-x="466" d="M-102 -365l17 81q5 24 25 15q39 -18 96 -18q59 0 85.5 58t26.5 235v999q0 45 45 45h86q45 0 45 -45v-1098q0 -194 -73.5 -259t-182.5 -65q-106 0 -152 20q-19 8 -19 26q0 3 1 6z" />
<glyph unicode="&#x2d9;" horiz-adv-x="614" d="M219 1285v86q0 45 45 45h86q45 0 45 -45v-86q0 -45 -45 -45h-86q-45 0 -45 45z" />
<glyph unicode="&#x2000;" horiz-adv-x="807" />
<glyph unicode="&#x2001;" horiz-adv-x="1615" />
<glyph unicode="&#x2002;" horiz-adv-x="807" />
<glyph unicode="&#x2003;" horiz-adv-x="1615" />
<glyph unicode="&#x2004;" horiz-adv-x="538" />
<glyph unicode="&#x2005;" horiz-adv-x="403" />
<glyph unicode="&#x2006;" horiz-adv-x="269" />
<glyph unicode="&#x2007;" horiz-adv-x="269" />
<glyph unicode="&#x2008;" horiz-adv-x="201" />
<glyph unicode="&#x2009;" horiz-adv-x="323" />
<glyph unicode="&#x200a;" horiz-adv-x="89" />
<glyph unicode="&#x2010;" horiz-adv-x="680" d="M56 518v70q0 35 45 35h478q45 0 45 -35v-70q0 -35 -45 -35h-478q-45 0 -45 35z" />
<glyph unicode="&#x2011;" horiz-adv-x="680" d="M56 518v70q0 35 45 35h478q45 0 45 -35v-70q0 -35 -45 -35h-478q-45 0 -45 35z" />
<glyph unicode="&#x2012;" horiz-adv-x="680" d="M56 518v70q0 35 45 35h478q45 0 45 -35v-70q0 -35 -45 -35h-478q-45 0 -45 35z" />
<glyph unicode="&#x2013;" horiz-adv-x="1024" d="M36 523v60q0 35 45 35h862q45 0 45 -35v-60q0 -35 -45 -35h-862q-45 0 -45 35z" />
<glyph unicode="&#x2014;" horiz-adv-x="2048" d="M36 523v60q0 35 45 35h1886q45 0 45 -35v-60q0 -35 -45 -35h-1886q-45 0 -45 35z" />
<glyph unicode="&#x2018;" horiz-adv-x="498" d="M146 1015v122q0 105 22.5 183.5t88.5 137.5q13 11 23 11q8 0 14 -6l45 -42q15 -14 -7 -34q-34 -30 -55.5 -86.5t-21.5 -118.5h52q45 0 45 -45v-122q0 -45 -45 -45h-116q-45 0 -45 45z" />
<glyph unicode="&#x2019;" horiz-adv-x="498" d="M146 1302v122q0 45 45 45h116q45 0 45 -45v-122q0 -105 -22.5 -183.5t-88.5 -137.5q-13 -11 -23 -11q-8 0 -14 6l-45 42q-15 14 7 34q34 30 55.5 86.5t21.5 118.5h-52q-45 0 -45 45z" />
<glyph unicode="&#x201a;" horiz-adv-x="498" d="M146 45v122q0 45 45 45h116q45 0 45 -45v-122q0 -105 -22.5 -183.5t-88.5 -137.5q-13 -11 -23 -11q-8 0 -14 6l-45 42q-15 14 7 34q34 30 55.5 86.5t21.5 118.5h-52q-45 0 -45 45z" />
<glyph unicode="&#x201c;" horiz-adv-x="760" d="M112 1015v122q0 105 22.5 183.5t88.5 137.5q13 11 23 11q8 0 14 -6l45 -42q15 -14 -7 -34q-34 -30 -55.5 -86.5t-21.5 -118.5h52q45 0 45 -45v-122q0 -45 -45 -45h-116q-45 0 -45 45zM442 1015v122q0 105 22.5 183.5t88.5 137.5q13 11 23 11q8 0 14 -6l45 -42 q15 -14 -7 -34q-34 -30 -55.5 -86.5t-21.5 -118.5h52q45 0 45 -45v-122q0 -45 -45 -45h-116q-45 0 -45 45z" />
<glyph unicode="&#x201d;" horiz-adv-x="760" d="M112 1302v122q0 45 45 45h116q45 0 45 -45v-122q0 -105 -22.5 -183.5t-88.5 -137.5q-13 -11 -23 -11q-8 0 -14 6l-45 42q-15 14 7 34q34 30 55.5 86.5t21.5 118.5h-52q-45 0 -45 45zM442 1302v122q0 45 45 45h116q45 0 45 -45v-122q0 -105 -22.5 -183.5t-88.5 -137.5 q-13 -11 -23 -11q-8 0 -14 6l-45 42q-15 14 7 34q34 30 55.5 86.5t21.5 118.5h-52q-45 0 -45 45z" />
<glyph unicode="&#x2022;" horiz-adv-x="1024" d="M302 694q0 87 61.5 148.5t148.5 61.5t148.5 -61.5t61.5 -148.5t-61.5 -148.5t-148.5 -61.5t-148.5 61.5t-61.5 148.5z" />
<glyph unicode="&#x2026;" horiz-adv-x="2048" d="M250 45v122q0 45 45 45h112q45 0 45 -45v-122q0 -45 -45 -45h-112q-45 0 -45 45zM923 45v122q0 45 45 45h112q45 0 45 -45v-122q0 -45 -45 -45h-112q-45 0 -45 45zM1596 45v122q0 45 45 45h112q45 0 45 -45v-122q0 -45 -45 -45h-112q-45 0 -45 45z" />
<glyph unicode="&#x202f;" horiz-adv-x="323" />
<glyph unicode="&#x205f;" horiz-adv-x="403" />
<glyph unicode="&#x20ac;" d="M17 549l11 60q6 35 51 35h47q0 92 5 154h-75q-40 0 -40 27q0 4 1 8l11 60q6 35 51 35h68q37 207 156.5 365.5t368.5 158.5q93 0 170 -24t156 -120q25 -31 25 -53q0 -16 -14 -27l-53 -42q-18 -14 -34 -14q-25 0 -44 34q-29 51 -80 73.5t-140 22.5q-148 0 -219.5 -129 t-94.5 -245h404q45 0 39 -35l-11 -60q-6 -35 -51 -35h-398q-5 -62 -5 -154h426q45 0 39 -35l-11 -60q-6 -35 -51 -35h-396q16 -160 80.5 -277t231.5 -117q103 0 154 37t104 90q28 28 51 28q15 0 27 -11l46 -41q12 -11 12 -26q0 -22 -26 -53q-64 -75 -145 -124.5t-230 -49.5 q-262 0 -370.5 153.5t-130.5 390.5h-77q-40 0 -40 27q0 4 1 8z" />
<glyph unicode="&#x2122;" horiz-adv-x="1598" d="M70 1360v52q0 22 29 22h516q29 0 29 -22v-52q0 -22 -29 -22h-198v-547q0 -29 -28 -29h-64q-28 0 -28 29v547h-198q-29 0 -29 22zM717 791v614q0 29 29 29h132q20 0 29 -25l147 -422q10 -28 18 -55t16 -59h2q8 32 16 59t18 55l147 422q9 25 29 25h132q29 0 29 -29v-614 q0 -29 -29 -29h-63q-28 0 -28 29v483q0 19 1 38h-1l-185 -511q-14 -39 -35 -39h-64q-21 0 -35 39l-185 511h-1q1 -19 1 -38v-483q0 -29 -28 -29h-63q-29 0 -29 29z" />
<glyph unicode="&#x2212;" horiz-adv-x="1280" d="M80 700v50q0 35 45 35h1030q45 0 45 -35v-50q0 -35 -45 -35h-1030q-45 0 -45 35z" />
<glyph unicode="&#x2215;" horiz-adv-x="802" d="M-119 6l938 1501q16 26 35 26q9 0 19 -6l42 -27q17 -10 17 -26q0 -13 -11 -30l-938 -1501q-16 -26 -35 -26q-9 0 -19 6l-42 27q-17 10 -17 26q0 13 11 30z" />
<glyph unicode="&#xe000;" horiz-adv-x="1050" d="M0 1050h1050v-1050h-1050v1050z" />
<glyph unicode="&#xf102;" horiz-adv-x="698" d="M40 328q0 160 84.5 272.5t224.5 112.5t224.5 -112.5t84.5 -272.5t-84.5 -272.5t-224.5 -112.5t-224.5 112.5t-84.5 272.5zM200 328q0 -140 34.5 -205t114.5 -65t114.5 65t34.5 205t-34.5 205t-114.5 65t-114.5 -65t-34.5 -205z" />
</font>
</defs>
</svg>
